MejorTorrent : variados extend March 2018 (2033) | Beat Maker Pro – драм-пад для создания музыки | social software updater
Inicio   -   Ayuda   -   Contacto   -   últimos Torrents

Torrents
Documentales842
Películas11256
Películas HD2068
Series1961
  Episodios22513
Series HD244
  Episodios2743
Juegos2689
  PC1736
Variados1521
  Deportes36
  Programas592
  Videoclips102
  Otros722
Música MP3 3525
Total Torrents57258

Información
Esta web no contiene ningún tipo de fichero almacenado.

Todos los archivos se comparten mediante el BitTorrent, un programa P2P de intercambio entre usuarios.



Descarga la última versión de uTorrent y baja a la máxima velocidad:
Prince - Capitol Theatre
Total Descargas:  2.209 En Noviembre:  2.209

Fecha:  2016-06-03



Torrent:      Descargar         Tamaño:  247,26 MB
Descripción:

Prince - Full Concert
Recorded Live: 1/30/1982 - Capitol Theatre (Passaic, NJ)

Setlist:

0:00:00 - The Second Coming
0:02:00 - Uptown
0:04:50 - Why You Wanna Treat Me So Bad?
0:12:24 - I Wanna Be Your Lover
0:29:14 - Dirty Mind
0:35:42 - Do Me, Baby
0:45:45 - Controversy
0:53:01 - Let's Work
1:00:55 - Encore Applause
1:02:55 - Jack U Off
1:07:42 - Applause

FILE INFO:

Complete name : Prince - Capitol Theatre, 01-30-1982 WEBRIP.mp4
Format : MPEG-4
Format profile : Base Media / Version 2
Codec ID : mp42
File size : 247 MiB
Duration : 1h 7mn
Overall bit rate mode : Variable
Overall bit rate : 510 Kbps
Encoded date : UTC 2016-05-03 07:01:52
Tagged date : UTC 2016-05-03 07:01:52
Writing application : HandBrake 0.10.5 2016021100

Video
ID : 1
Format : AVC
Format/Info : Advanced Video Codec
Format profile : High@L3.2
Format settings, CABAC : Yes
Format settings, ReFrames : 16 frames
Codec ID : avc1
Codec ID/Info : Advanced Video Coding
Duration : 1h 7mn
Bit rate : 378 Kbps
Width : 640 pixels
Height : 480 pixels
Display aspect ratio : 4:3
Frame rate mode : Constant
Frame rate : 29.970 fps
Color space : YUV
Chroma subsampling : 4:2:0
Bit depth : 8 bits
Scan type : Progressive
Bits/(Pixel*Frame) : 0.041
Stream size : 183 MiB (74%)
Writing library : x264 core 142 r2479 dd79a61
Encoding settings : cabac=1 / ref=16 / deblock=1:0:0 /
analyse=0x3:0x133 / me=umh / subme=10 / psy=1 / psy_rd=1.00:0.00 /
mixed_ref=1 / me_range=24 / chroma_me=1 / trellis=2 / 8x8dct=1 /
cqm=0 / deadzone=21,11 / fast_pskip=1 / chroma_qp_offset=-2 /
threads=6 / lookahead_threads=1 / sliced_threads=0 / nr=0 / decimate=1
/ interlaced=0 / bluray_compat=0 / constrained_intra=0 / bframes=8 /
b_pyramid=2 / b_adapt=2 / b_bias=0 / direct=3 / weightb=1 / open_gop=0
/ weightp=2 / keyint=300 / keyint_min=30 / scenecut=40 / intra_refresh=0
/ rc_lookahead=60 / rc=crf / mbtree=1 / crf=20.0 / qcomp=0.60 / qpmin=0
/ qpmax=69 / qpstep=4 / ip_ratio=1.40 / aq=1:1.00
Encoded date : UTC 2016-05-03 07:01:52
Tagged date : UTC 2016-05-03 07:01:52
Color primaries : BT.601 NTSC
Transfer characteristics : BT.709
Matrix coefficients : BT.601

Audio
ID : 2
Format : AAC
Format/Info : Advanced Audio Codec
Format profile : LC
Codec ID : 40
Duration : 1h 7mn
Bit rate mode : Variable
Bit rate : 126 Kbps
Channel(s) : 2 channels
Channel positions : Front: L R
Sampling rate : 44.1 KHz
Compression mode : Lossy
Stream size : 60.9 MiB (25%)
Title : Stereo
Encoded date : UTC 2016-05-03 07:01:52
Tagged date : UTC 2016-05-03 07:01:52



Volver al índice de Variados







Datos legales


00:47:48
computer