MejorTorrent : variados extend
Inicio   -   Ayuda   -   Contacto   -   últimos Torrents

Torrents
Documentales842
Películas11256
Películas HD2068
Series1961
  Episodios22513
Series HD244
  Episodios2743
Juegos2689
  PC1736
Variados1521
  Deportes36
  Programas592
  Videoclips102
  Otros722
Música MP3 3525
Total Torrents57258

Información
Esta web no contiene ningún tipo de fichero almacenado.

Todos los archivos se comparten mediante el BitTorrent, un programa P2P de intercambio entre usuarios.



Descarga la última versión de uTorrent y baja a la máxima velocidad:
Ciara - Sorry
Total Descargas:  1.640 En Noviembre:  1.640

Fecha:  2016-10-29



Torrent:      Descargar         Tamaño:  45,48 MB
Descripción:

General Complete name : Ciara - Sorry.mp4 Format : MPEG-4 File size :
41.5 MiB Duration : 4mn 41s Overall bit rate mode : Variable Overall bit
rate : 1 238 Kbps

Video ID : 1 Format : AVC Format/Info : Advanced Video Codec Codec ID :
avc1 Codec ID/Info : Advanced Video Coding Duration : 4mn 41s Bit rate
mode : Variable Bit rate : 1 108 Kbps Maximum bit rate : 50.0 Mbps Width
: 1 920 pixels Height : 772 pixels Display aspect ratio : 2.487 Frame rate
mode : Variable Frame rate : 23.976 fps Stream size : 37.1 MiB (89%)

Audio ID : 2
Format : AAC
Format/Info : Advanced Audio Codec
Format profile : LC
Codec ID : 40
Duration : 4mn 41s
Bit rate mode : Variable
Bit rate : 125 Kbps
Maximum bit rate : 211 Kbps
Channel(s) : 2 channels
Channel positions : Front: L R
Sampling rate : 48.0 KHz
Stream size : 4.18 MiB (10%)



Volver al índice de Variados







Datos legales


21:20:09
computer


Magical Boys | Gokinjo Monogatari | Produktdetails